<svg xmlns="http://www.w3.org/2000/svg"><metadata>Generated by IcoMoon</metadata><defs><font id="mobirise-24px" horiz-adv-x="1024"><font-face ascent="960" descent="-64" units-per-em="1024"/><glyph horiz-adv-x="512"/><glyph d="M853.333 917.333h-853.333v-256h853.333v256zM768 746.667h-682.667v85.333h682.667v-85.333zM853.333 576h-853.333v-256h853.333v256zM768 405.333h-682.667v85.333h682.667v-85.333zM512 234.667v-256h512v256h-512zM938.667 64h-341.333v85.333h341.333v-85.333z" glyph-name="mbri-add-submenu" unicode=""/><glyph d="M810.667 192v341.333c0 166.4-132.267 298.667-298.667 298.667s-298.667-132.267-298.667-298.667v-341.333h-85.333v-85.333h256c0-72.533 55.467-128 128-128s128 55.467 128 128h256v85.333h-85.333zM512 64c-25.6 0-42.667 17.067-42.667 42.667h85.333c0-25.6-17.067-42.667-42.667-42.667zM725.333 192h-426.667v341.333c0 119.467 93.867 213.333 213.333 213.333s213.333-93.867 213.333-213.333v-341.333zM128 533.333h-85.333c0 123.733 46.933 243.2 136.533 332.8l59.733-59.733c-72.533-72.533-110.933-170.667-110.933-273.067zM981.333 533.333h-85.333c0 102.4-38.4 200.533-110.933 273.067l59.733 59.733c89.6-89.6 136.533-209.067 136.533-332.8z" glyph-name="mbri-alert" unicode=""/><glyph d="M768 704h-512v85.333h512v-85.333zM1024 576h-1024v-85.333h1024v85.333zM768 362.667h-512v-85.333h512v85.333zM1024 149.333h-1024v-85.333h1024v85.333z" glyph-name="mbri-align-center" unicode=""/><glyph d="M1024 704h-1024v85.333h1024v-85.333zM1024 576h-1024v-85.333h1024v85.333zM1024 362.667h-1024v-85.333h1024v85.333zM1024 149.333h-1024v-85.333h1024v85.333z" glyph-name="mbri-align-justify" unicode=""/><glyph d="M1024 704h-1024v85.333h1024v-85.333zM597.333 576h-597.333v-85.333h597.333v85.333zM1024 362.667h-1024v-85.333h1024v85.333zM597.333 149.333h-597.333v-85.333h597.333v85.333z" glyph-name="mbri-align-left" unicode=""/><glyph d="M1024 721.067h-1024v68.267h1024v-68.267zM1024 584.533h-614.4v-68.267h614.4v68.267zM1024 379.733h-1024v-68.267h1024v68.267zM1024 174.933h-614.4v-68.267h614.4v68.267z" glyph-name="mbri-align-right" unicode=""/><glyph d="M738.133 789.333l68.267 106.667-72.533 46.933-64-102.4c-51.2 21.333-102.4 34.133-157.867 34.133s-106.667-12.8-153.6-38.4l-68.267 102.4-68.267-42.667 64-106.667c-68.267-64-115.2-153.6-115.2-256v-469.333h128v-128h85.333v128h256v-128h85.333v128h128v469.333c0 102.4-46.933 192-115.2 256zM512 789.333c128 0 230.4-93.867 251.733-213.333h-503.467c21.333 119.467 123.733 213.333 251.733 213.333zM768 149.333h-512v341.333h512v-341.333zM42.667 448h85.333v-256h-85.333v256zM981.333 448v-256h-85.333v256h85.333z" glyph-name="mbri-android" unicode=""/><glyph d="M853.333 405.333c0 51.2 21.333 89.6 64 119.467l25.6 17.067-8.533 29.867c-17.067 51.2-51.2 93.867-98.133 123.733-46.933 34.133-102.4 51.2-153.6 51.2-34.133 0-59.733-12.8-81.067-21.333-25.6-12.8-51.2-21.333-89.6-21.333s-59.733 8.533-76.8 21.333c-21.333 8.533-46.933 21.333-93.867 21.333-72.533 0-136.533-29.867-183.467-85.333-46.933-59.733-72.533-149.333-72.533-256 0-102.4 34.133-217.6 89.6-315.733 25.6-42.667 51.2-81.067 81.067-106.667 29.867-29.867 59.733-46.933 85.333-46.933 46.933 0 72.533 8.533 102.4 21.333 0 0 42.667 21.333 68.267 21.333s42.667-8.533 64-17.067c0 0 59.733-25.6 106.667-25.6 25.6 0 59.733 21.333 72.533 29.867 21.333 17.067 46.933 42.667 72.533 72.533 51.2 59.733 89.6 132.267 106.667 200.533l8.533 29.867-25.6 17.067c-42.667 25.6-64 68.267-64 119.467zM759.467 89.6c-38.4-51.2-64-68.267-81.067-68.267-29.867 0-68.267 17.067-68.267 17.067-25.6 12.8-55.467 25.6-98.133 25.6s-102.4-25.6-102.4-25.6c-21.333-8.533-38.4-17.067-64-17.067-29.867 0-76.8 72.533-98.133 110.933-46.933 81.067-76.8 187.733-76.8 273.067 0 89.6 17.067 157.867 55.467 200.533 29.867 38.4 68.267 55.467 115.2 55.467 25.6 0 34.133-4.267 55.467-12.8 21.333-12.8 55.467-29.867 115.2-29.867 55.467 0 93.867 17.067 123.733 29.867 17.067 8.533 29.867 12.8 46.933 12.8 34.133 0 72.533-12.8 102.4-34.133 21.333-17.067 38.4-34.133 51.2-55.467-46.933-42.667-72.533-102.4-72.533-166.4 0-68.267 25.6-128 72.533-170.667-12.8-51.2-46.933-98.133-76.8-145.067zM541.867 759.467l-59.733 59.733 128 128 59.733-59.733-128-128z" glyph-name="mbri-apple" unicode=""/><glyph d="M59.733 763.733l452.267-452.267 452.267 452.267 59.733-59.733-512-512-512 512z" glyph-name="mbri-arrow-down" unicode=""/><glyph d="M196.267-4.267l452.267 452.267-452.267 452.267 59.733 59.733 512-512-512-512z" glyph-name="mbri-arrow-next" unicode=""/><glyph d="M827.733 900.267l-452.267-452.267 452.267-452.267-59.733-59.733-512 512 512 512z" glyph-name="mbri-arrow-prev" unicode=""/><glyph d="M964.267 174.933l-452.267 452.267-452.267-452.267-59.733 59.733 512 512 512-512z" glyph-name="mbri-arrow-up" unicode=""/><glyph d="M674.133 507.733c59.733 46.933 93.867 119.467 93.867 196.267 0 140.8-115.2 256-256 256h-298.667v-1024h341.333c166.4 0 298.667 132.267 298.667 298.667 0 119.467-72.533 226.133-179.2 273.067zM298.667 874.667h213.333c93.867 0 170.667-76.8 170.667-170.667s-76.8-170.667-170.667-170.667h-213.333v341.333zM554.667 21.333h-256v426.667h256c119.467 0 213.333-93.867 213.333-213.333s-93.867-213.333-213.333-213.333z" glyph-name="mbri-bold" unicode=""/><glyph d="M853.333-59.733l-341.333 243.2-341.333-243.2v1019.733h682.667v-1019.733zM512 285.867l256-183.467v772.267h-512v-772.267l256 183.467z" glyph-name="mbri-bookmark" unicode=""/><glyph d="M0 960v-1024h1024v1024h-1024zM938.667 21.333h-853.333v853.333h853.333v-853.333zM725.333 320c0 64-34.133 115.2-85.333 145.067 25.6 29.867 42.667 68.267 42.667 110.933 0 93.867-76.8 170.667-170.667 170.667h-170.667v-597.333h213.333c93.867 0 170.667 76.8 170.667 170.667zM426.667 661.333h85.333c46.933 0 85.333-38.4 85.333-85.333s-38.4-85.333-85.333-85.333h-85.333v170.667zM426.667 405.333h128c46.933 0 85.333-38.4 85.333-85.333s-38.4-85.333-85.333-85.333h-128v170.667z" glyph-name="mbri-bootstrap" unicode=""/><glyph d="M725.333 704v170.667h-426.667v-170.667h-298.667v-682.667h1024v682.667h-298.667zM384 789.333h256v-85.333h-256v85.333zM938.667 106.667h-853.333v298.667h853.333v-298.667zM938.667 490.667h-853.333v128h853.333v-128z" glyph-name="mbri-briefcase" unicode=""/><glyph d="M0 832v-768h1024v768h-1024zM938.667 149.333h-853.333v426.667h853.333v-426.667zM938.667 661.333h-853.333v85.333h853.333v-85.333zM358.4 192l98.133 98.133c17.067-8.533 34.133-12.8 55.467-12.8 72.533 0 128 55.467 128 128s-55.467 128-128 128-128-55.467-128-128c0-21.333 4.267-38.4 12.8-55.467l-98.133-98.133 59.733-59.733zM512 448c25.6 0 42.667-17.067 42.667-42.667s-17.067-42.667-42.667-42.667-42.667 17.067-42.667 42.667 17.067 42.667 42.667 42.667z" glyph-name="mbri-browse" unicode=""/><glyph d="M128 661.333c-72.533 0-128 55.467-128 128s55.467 128 128 128 128-55.467 128-128-55.467-128-128-128zM128 832c-25.6 0-42.667-17.067-42.667-42.667s17.067-42.667 42.667-42.667 42.667 17.067 42.667 42.667-17.067 42.667-42.667 42.667zM128 320c-72.533 0-128 55.467-128 128s55.467 128 128 128 128-55.467 128-128-55.467-128-128-128zM128 490.667c-25.6 0-42.667-17.067-42.667-42.667s17.067-42.667 42.667-42.667 42.667 17.067 42.667 42.667-17.067 42.667-42.667 42.667zM128-21.333c-72.533 0-128 55.467-128 128s55.467 128 128 128 128-55.467 128-128-55.467-128-128-128zM128 149.333c-25.6 0-42.667-17.067-42.667-42.667s17.067-42.667 42.667-42.667 42.667 17.067 42.667 42.667-17.067 42.667-42.667 42.667zM1024 832h-682.667v-85.333h682.667v85.333zM1024 490.667h-682.667v-85.333h682.667v85.333zM1024 149.333h-682.667v-85.333h682.667v85.333z" glyph-name="mbri-bulleted-list" unicode=""/><glyph d="M810.667 832v42.667h-85.333v-42.667h-426.667v42.667h-85.333v-42.667h-213.333v-810.667h1024v810.667h-213.333zM938.667 106.667h-853.333v640h128v-42.667h85.333v42.667h426.667v-42.667h85.333v42.667h128v-640zM213.333 448h85.333v-85.333h-85.333v85.333zM384 448h85.333v-85.333h-85.333v85.333zM554.667 448h85.333v-85.333h-85.333v85.333zM725.333 448h85.333v-85.333h-85.333v85.333zM213.333 618.667h85.333v-85.333h-85.333v85.333zM384 618.667h85.333v-85.333h-85.333v85.333zM554.667 618.667h85.333v-85.333h-85.333v85.333zM725.333 618.667h85.333v-85.333h-85.333v85.333zM213.333 277.333h85.333v-85.333h-85.333v85.333zM384 277.333h85.333v-85.333h-85.333v85.333zM554.667 277.333h85.333v-85.333h-85.333v85.333zM725.333 277.333h85.333v-85.333h-85.333v85.333z" glyph-name="mbri-calendar" unicode=""/><glyph d="M755.2 704l-42.667 128h-401.067l-42.667-128h-268.8v-640h1024v640h-268.8zM938.667 149.333h-853.333v469.333h243.2l42.667 128h281.6l42.667-128h243.2v-469.333zM512 618.667c-119.467 0-213.333-93.867-213.333-213.333s93.867-213.333 213.333-213.333 213.333 93.867 213.333 213.333-93.867 213.333-213.333 213.333zM512 277.333c-72.533 0-128 55.467-128 128s55.467 128 128 128 128-55.467 128-128-55.467-128-128-128z" glyph-name="mbri-camera" unicode=""/><glyph d="M981.333 704l-51.2-384h-657.067l17.067-85.333h605.867v-85.333h-674.133l-128 640h-93.867v85.333h162.133l93.867-469.333h597.333l42.667 298.667zM341.333 106.667c-46.933 0-85.333-38.4-85.333-85.333s38.4-85.333 85.333-85.333 85.333 38.4 85.333 85.333-38.4 85.333-85.333 85.333zM768 106.667c-46.933 0-85.333-38.4-85.333-85.333s38.4-85.333 85.333-85.333 85.333 38.4 85.333 85.333-38.4 85.333-85.333 85.333zM695.467 750.933l59.733-59.733-200.533-200.533-200.533 200.533 59.733 59.733 98.133-98.133v307.2h85.333v-307.2l98.133 98.133z" glyph-name="mbri-cart-add" unicode=""/><glyph d="M896 149.333h-674.133l-128 640h-93.867v85.333h162.133l34.133-170.667h785.067l-51.2-384h-657.067l17.067-85.333h605.867v-85.333zM256 405.333h597.333l29.867 213.333h-669.867l42.667-213.333zM341.333 106.667c-46.933 0-85.333-38.4-85.333-85.333s38.4-85.333 85.333-85.333 85.333 38.4 85.333 85.333-38.4 85.333-85.333 85.333zM768 106.667c-46.933 0-85.333-38.4-85.333-85.333s38.4-85.333 85.333-85.333 85.333 38.4 85.333 85.333-38.4 85.333-85.333 85.333zM810.667 874.667h-469.333v-85.333h469.333v85.333z" glyph-name="mbri-cart-full" unicode=""/><glyph d="M512 960c-281.6 0-512-230.4-512-512s230.4-512 512-512 512 230.4 512 512-230.4 512-512 512zM512 21.333c-234.667 0-426.667 192-426.667 426.667s192 426.667 426.667 426.667 426.667-192 426.667-426.667-192-426.667-426.667-426.667zM725.333 341.333c0-81.067-68.267-149.333-149.333-149.333h-21.333v-85.333h-85.333v85.333h-128v85.333h234.667c34.133 0 64 29.867 64 64s-29.867 64-64 64h-128c-81.067 0-149.333 68.267-149.333 149.333s68.267 149.333 149.333 149.333h21.333v85.333h85.333v-85.333h128v-85.333h-234.667c-34.133 0-64-29.867-64-64s29.867-64 64-64h128c81.067 0 149.333-68.267 149.333-149.333z" glyph-name="mbri-cash" unicode=""/><glyph d="M512 960c-281.6 0-512-230.4-512-512 0-68.267 12.8-119.467 34.133-153.6 21.333-38.4 55.467-59.733 93.867-59.733 68.267 0 128 59.733 128 128 0 46.933 38.4 85.333 85.333 85.333s85.333-38.4 85.333-85.333-38.4-85.333-85.333-85.333c-68.267 0-128-68.267-128-145.067 0-55.467 25.6-102.4 72.533-136.533 51.2-38.4 128-59.733 226.133-59.733 281.6 0 512 230.4 512 512s-230.4 512-512 512zM512 21.333c-98.133 0-149.333 21.333-174.933 42.667-34.133 21.333-38.4 46.933-38.4 68.267 0 29.867 21.333 59.733 42.667 59.733 93.867 0 170.667 76.8 170.667 170.667s-76.8 170.667-170.667 170.667-170.667-76.8-170.667-170.667c0-21.333-21.333-42.667-42.667-42.667-4.267 0-12.8 0-21.333 17.067s-21.333 46.933-21.333 110.933c0 234.667 192 426.667 426.667 426.667s426.667-192 426.667-426.667-192-426.667-426.667-426.667zM725.333 170.667c0-34.133-29.867-64-64-64s-64 29.867-64 64 29.867 64 64 64 64-29.867 64-64zM512 768c0-34.133-29.867-64-64-64s-64 29.867-64 64 29.867 64 64 64 64-29.867 64-64zM597.333 725.333c0 34.133 29.867 64 64 64s64-29.867 64-64-29.867-64-64-64-64 29.867-64 64zM725.333 554.667c0 34.133 29.867 64 64 64s64-29.867 64-64-29.867-64-64-64-64 29.867-64 64zM853.333 341.333c0-34.133-29.867-64-64-64s-64 29.867-64 64 29.867 64 64 64 64-29.867 64-64z" glyph-name="mbri-change-style" unicode=""/><glyph d="M0-38.4v913.067h1024v-640h-750.933l-273.067-273.067zM85.333 789.333v-622.933l153.6 153.6h699.733v469.333h-853.333z" glyph-name="mbri-chat" unicode=""/><glyph d="M512 960c-281.6 0-512-230.4-512-512s230.4-512 512-512 512 230.4 512 512-230.4 512-512 512zM512 21.333c-234.667 0-426.667 192-426.667 426.667s192 426.667 426.667 426.667 426.667-192 426.667-426.667-192-426.667-426.667-426.667zM469.333 789.333h85.333v-384h-256v85.333h170.667v298.667z" glyph-name="mbri-clock" unicode=""/><glyph d="M571.733 448l439.467-439.467-59.733-59.733-439.467 439.467-439.467-439.467-59.733 59.733 439.467 439.467-439.467 439.467 59.733 59.733 439.467-439.467 439.467 439.467 59.733-59.733-439.467-439.467z" glyph-name="mbri-close" unicode=""/><glyph d="M853.333 106.667h-597.333c-140.8 0-256 115.2-256 256 0 136.533 110.933 251.733 247.467 256 59.733 128 187.733 213.333 328.533 213.333 200.533 0 362.667-162.133 362.667-362.667 0-12.8 0-29.867-4.267-42.667 51.2-29.867 89.6-85.333 89.6-149.333 0-93.867-76.8-170.667-170.667-170.667zM256 533.333c-93.867 0-170.667-76.8-170.667-170.667s76.8-170.667 170.667-170.667h597.333c46.933 0 85.333 38.4 85.333 85.333 0 38.4-25.6 72.533-64 81.067l-38.4 12.8 8.533 38.4c4.267 21.333 8.533 42.667 8.533 59.733 0 153.6-123.733 277.333-277.333 277.333-115.2 0-221.867-72.533-260.267-183.467l-12.8-29.867h-46.933z" glyph-name="mbri-cloud" unicode=""/><glyph d="M260.267 588.8l-140.8-140.8 140.8-140.8-59.733-59.733-200.533 200.533 200.533 200.533 59.733-59.733zM823.467 648.533l-59.733-59.733 140.8-140.8-140.8-140.8 59.733-59.733 200.533 200.533-200.533 200.533zM345.6 166.4l76.8-34.133 256 597.333-76.8 34.133-256-597.333z" glyph-name="mbri-code" unicode=""/><glyph d="M640 704h-426.667v85.333h426.667v-85.333zM640 618.667h-426.667v-85.333h426.667v85.333zM426.667 448h-213.333v-85.333h213.333v85.333zM810.667 345.6v-409.6h-768v1024h768v-324.267l68.267 68.267 145.067-145.067-213.333-213.333zM878.933 584.533l-366.933-366.933v-25.6h25.6l366.933 366.933-25.6 25.6zM725.333 260.267l-153.6-153.6h-145.067v145.067l298.667 298.667v324.267h-597.333v-853.333h597.333v238.933z" glyph-name="mbri-contact-form" unicode=""/><glyph d="M0 789.333v-640h1024v640h-1024zM938.667 234.667h-853.333v298.667h853.333v-298.667zM938.667 618.667h-853.333v85.333h853.333v-85.333zM512 320h-341.333v85.333h341.333v-85.333z" glyph-name="mbri-credit-card" unicode=""/><glyph d="M998.4 234.667l-571.733 571.733v-802.133l200.533 200.533 102.4-238.933 76.8 34.133-102.4 234.667h294.4zM512 601.6l281.6-281.6h-170.667l-110.933-110.933v392.533zM512 874.667h-85.333v85.333h85.333v-85.333zM256 618.667h-85.333v85.333h85.333v-85.333zM682.667 704h85.333v-85.333h-85.333v85.333zM290.133 541.867l59.733-59.733-59.733-59.733-59.733 59.733 59.733 59.733zM648.533 780.8l-59.733 59.733 59.733 59.733 59.733-59.733-59.733-59.733zM290.133 904.533l59.733-59.733-59.733-64-64 59.733 64 64z" glyph-name="mbri-cursor-click" unicode=""/><glyph d="M0 874.667v-913.067l273.067 273.067h750.933v640h-1024zM938.667 320h-699.733l-153.6-153.6v622.933h853.333v-469.333zM469.333 388.267l-157.867 157.867 59.733 59.733 98.133-98.133 226.133 226.133 59.733-59.733-285.867-285.867z" glyph-name="mbri-cust-feedback" unicode=""/><glyph d="M512 960c-217.6 0-384-81.067-384-192v-640c0-110.933 166.4-192 384-192s384 81.067 384 192v640c0 110.933-166.4 192-384 192zM512 874.667c183.467 0 298.667-64 298.667-106.667s-115.2-106.667-298.667-106.667-298.667 64-298.667 106.667 115.2 106.667 298.667 106.667zM512 21.333c-183.467 0-298.667 64-298.667 106.667v89.6c68.267-42.667 174.933-68.267 298.667-68.267s230.4 25.6 298.667 68.267v-89.6c0-42.667-115.2-106.667-298.667-106.667zM512 234.667c-183.467 0-298.667 64-298.667 106.667v89.6c68.267-42.667 174.933-68.267 298.667-68.267s230.4 25.6 298.667 68.267v-89.6c0-42.667-115.2-106.667-298.667-106.667zM512 448c-183.467 0-298.667 64-298.667 106.667v89.6c68.267-42.667 174.933-68.267 298.667-68.267s230.4 25.6 298.667 68.267v-89.6c0-42.667-115.2-106.667-298.667-106.667z" glyph-name="mbri-database" unicode=""/><glyph d="M640 832l-384-192v-430.933l384-192 384 192v430.933l-384 192zM887.467 614.4l-247.467-123.733-247.467 123.733 247.467 123.733 247.467-123.733zM341.333 546.133l256-128v-285.867l-256 128v285.867zM682.667 132.267v285.867l256 128v-285.867l-256-128zM0 661.333h170.667v-85.333h-170.667v85.333zM0 490.667h170.667v-85.333h-170.667v85.333zM0 320h170.667v-85.333h-170.667v85.333z" glyph-name="mbri-delivery" unicode=""/><glyph d="M1024 192v682.667h-1024v-682.667h384v-85.333h-85.333v-85.333h426.667v85.333h-85.333v85.333h384zM554.667 106.667h-85.333v85.333h85.333v-85.333zM85.333 277.333v512h853.333v-512h-853.333z" glyph-name="mbri-desktop" unicode=""/><glyph d="M810.667 64h-85.333v85.333h85.333v-85.333zM981.333 618.667v-682.667h-938.667v1024h768v-341.333h170.667zM554.667 21.333v597.333h170.667v256h-597.333v-853.333h426.667zM896 533.333h-256v-512h256v512zM384 106.667h85.333v85.333h-85.333v-85.333z" glyph-name="mbri-devices" unicode=""/><glyph d="M797.867 221.867l-285.867-285.867-285.867 285.867 59.733 59.733 183.467-183.467v861.867h85.333v-861.867l183.467 183.467 59.733-59.733z" glyph-name="mbri-down" unicode=""/><glyph d="M652.8 196.267l59.733-59.733-200.533-200.533-200.533 200.533 59.733 59.733 98.133-98.133v477.867h85.333v-477.867l98.133 98.133zM844.8 661.333c-29.867 145.067-162.133 256-311.467 256-136.533 0-256-89.6-302.933-213.333h-17.067c-119.467 0-213.333-93.867-213.333-213.333s93.867-213.333 213.333-213.333h170.667v85.333h-170.667c-72.533 0-128 55.467-128 128s55.467 128 128 128h85.333l4.267 25.6c21.333 110.933 119.467 187.733 230.4 187.733 123.733 0 226.133-93.867 234.667-217.6v-38.4h64c59.733 0 106.667-46.933 106.667-106.667s-46.933-106.667-106.667-106.667h-192v-85.333h192c106.667 0 192 85.333 192 192 0 102.4-76.8 183.467-179.2 192z" glyph-name="mbri-download-2" unicode=""/><glyph d="M285.867 452.267l-59.733-59.733 285.867-285.867 285.867 285.867-59.733 59.733-183.467-183.467v691.2h-85.333v-691.2l-183.467 183.467zM853.333 106.667v-85.333h-682.667v85.333h-85.333v-170.667h853.333v170.667h-85.333z" glyph-name="mbri-download" unicode=""/><glyph d="M768 704v85.333h-85.333v-85.333h-426.667v-426.667h-85.333v-85.333h85.333v-256h768v768h-256zM938.667 21.333h-597.333v597.333h597.333v-597.333zM0 960h85.333v-85.333h-85.333v85.333zM256 874.667h-85.333v85.333h85.333v-85.333zM426.667 874.667h-85.333v85.333h85.333v-85.333zM597.333 874.667h-85.333v85.333h85.333v-85.333zM768 874.667h-85.333v85.333h85.333v-85.333zM0 789.333h85.333v-85.333h-85.333v85.333zM0 618.667h85.333v-85.333h-85.333v85.333zM0 448h85.333v-85.333h-85.333v85.333zM0 277.333h85.333v-85.333h-85.333v85.333z" glyph-name="mbri-drag-n-drop-2" unicode=""/><glyph d="M1024 448l-200.533-200.533-59.733 59.733 98.133 98.133h-307.2v-307.2l98.133 98.133 59.733-59.733-200.533-200.533-200.533 200.533 59.733 59.733 98.133-98.133v307.2h-307.2l98.133-98.133-59.733-59.733-200.533 200.533 200.533 200.533 59.733-59.733-98.133-98.133h307.2v307.2l-98.133-98.133-59.733 59.733 200.533 200.533 200.533-200.533-59.733-59.733-98.133 98.133v-307.2h307.2l-98.133 98.133 59.733 59.733 200.533-200.533z" glyph-name="mbri-drag-n-drop" unicode=""/><glyph d="M708.267 960l-708.267-708.267v-315.733h315.733l708.267 708.267-315.733 315.733zM904.533 644.267l-102.4-102.4-196.267 196.267 102.4 102.4 196.267-196.267zM281.6 21.333h-196.267v196.267l460.8 460.8 196.267-196.267-460.8-460.8z" glyph-name="mbri-edit-2" unicode=""/><glyph d="M853.333 448h85.333v-512h-938.667v938.667h512v-85.333h-426.667v-768h768v426.667zM298.667 465.067l494.933 494.933 230.4-230.4-494.933-494.933h-230.4v230.4zM384 320h110.933l409.6 409.6-110.933 110.933-409.6-409.6v-110.933z" glyph-name="mbri-edit" unicode=""/><glyph d="M490.667 960c-268.8 0-490.667-221.867-490.667-490.667s221.867-490.667 490.667-490.667 490.667 221.867 490.667 490.667-221.867 490.667-490.667 490.667zM490.667 64c-221.867 0-405.333 183.467-405.333 405.333s183.467 405.333 405.333 405.333 405.333-183.467 405.333-405.333-183.467-405.333-405.333-405.333zM755.2 674.133l-204.8-204.8 204.8-204.8-59.733-59.733-204.8 204.8-204.8-204.8-59.733 59.733 204.8 204.8-204.8 204.8 59.733 59.733 204.8-204.8 204.8 204.8 59.733-59.733z" glyph-name="mbri-error" unicode=""/><glyph d="M853.333-64h-341.333v85.333c0 46.933-38.4 85.333-85.333 85.333s-85.333-38.4-85.333-85.333v-85.333h-341.333v341.333h85.333c46.933 0 85.333 38.4 85.333 85.333s-38.4 85.333-85.333 85.333h-85.333v341.333h256c0 93.867 76.8 170.667 170.667 170.667s170.667-76.8 170.667-170.667h256v-256c93.867 0 170.667-76.8 170.667-170.667s-76.8-170.667-170.667-170.667v-256zM597.333 21.333h170.667v256h85.333c46.933 0 85.333 38.4 85.333 85.333s-38.4 85.333-85.333 85.333h-85.333v256h-256v85.333c0 46.933-38.4 85.333-85.333 85.333s-85.333-38.4-85.333-85.333v-85.333h-256v-170.667c93.867 0 170.667-76.8 170.667-170.667s-76.8-170.667-170.667-170.667v-170.667h170.667c0 93.867 76.8 170.667 170.667 170.667s170.667-76.8 170.667-170.667z" glyph-name="mbri-extension" unicode=""/><glyph d="M0-64h426.667v426.667h-426.667v-426.667zM85.333 277.333h256v-256h-256v256zM0 448h426.667v426.667h-426.667v-426.667zM85.333 789.333h256v-256h-256v256zM512-64h426.667v426.667h-426.667v-426.667zM597.333 277.333h256v-256h-256v256zM669.867 627.2l-157.867 119.467h196.267l59.733 170.667 59.733-170.667h196.267l-157.867-119.467 59.733-179.2-157.867 110.933-157.867-110.933 59.733 179.2z" glyph-name="mbri-features" unicode=""/><glyph d="M614.4 960h-486.4v-1024h768v742.4l-281.6 281.6zM640 814.933l110.933-110.933h-110.933v110.933zM810.667 21.333h-597.333v853.333h341.333v-256h256v-597.333zM298.667 277.333h426.667v-85.333h-426.667v85.333zM298.667 448h426.667v-85.333h-426.667v85.333z" glyph-name="mbri-file" unicode=""/><glyph d="M938.667 960h-810.667v-1024h85.333v426.667h725.333l-149.333 298.667 149.333 298.667zM802.133 448h-588.8v426.667h588.8l-106.667-213.333 106.667-213.333z" glyph-name="mbri-flag" unicode=""/><glyph d="M486.4 704l-128 128h-358.4v-810.667h1024v682.667h-537.6zM938.667 106.667h-853.333v640h238.933l128-128h486.4v-512z" glyph-name="mbri-folder" unicode=""/><glyph d="M785.067 661.333c17.067 25.6 25.6 55.467 25.6 85.333 0 93.867-76.8 170.667-170.667 170.667-51.2 0-98.133-21.333-128-59.733-29.867 38.4-76.8 59.733-128 59.733-93.867 0-170.667-76.8-170.667-170.667 0-29.867 8.533-59.733 25.6-85.333h-238.933v-256h85.333v-469.333h853.333v469.333h85.333v256h-238.933zM554.667 746.667c0 46.933 38.4 85.333 85.333 85.333s85.333-38.4 85.333-85.333-38.4-85.333-85.333-85.333h-85.333v85.333zM384 832c46.933 0 85.333-38.4 85.333-85.333v-85.333h-85.333c-46.933 0-85.333 38.4-85.333 85.333s38.4 85.333 85.333 85.333zM853.333 21.333h-682.667v384h682.667v-384zM938.667 490.667h-853.333v85.333h853.333v-85.333z" glyph-name="mbri-gift" unicode=""/><glyph d="M938.667 686.933v273.067l-226.133-93.867c-115.2 38.4-247.467 38.4-362.667 0l-221.867 93.867v-281.6c-29.867-46.933-42.667-93.867-42.667-145.067 0-132.267 98.133-251.733 256-307.2v-128c-98.133-25.6-128 17.067-162.133 76.8-29.867 46.933-64 102.4-136.533 102.4v-85.333c25.6 0 38.4-17.067 64-59.733 34.133-51.2 76.8-128 183.467-128 17.067 0 34.133 0 51.2 4.267v-72.533h384v290.133c157.867 55.467 256 174.933 256 307.2 0 55.467-12.8 106.667-42.667 153.6zM669.867 298.667l-29.867-12.8v-264.533h-213.333v264.533l-29.867 8.533c-136.533 42.667-226.133 136.533-226.133 238.933 0 38.4 12.8 72.533 34.133 110.933l8.533 8.533v179.2l136.533-55.467 17.067 4.267c106.667 38.4 230.4 38.4 337.067 0l17.067-4.267 132.267 55.467v-170.667l8.533-12.8c21.333-34.133 34.133-72.533 34.133-115.2 0-102.4-89.6-196.267-226.133-234.667z" glyph-name="mbri-github" unicode=""/><glyph d="M512 960c-281.6 0-512-230.4-512-512s230.4-512 512-512 512 230.4 512 512-230.4 512-512 512zM512 21.333c-51.2 0-110.933 81.067-140.8 204.8 93.867 12.8 192 12.8 285.867 0-34.133-123.733-93.867-204.8-145.067-204.8zM512 874.667c51.2 0 110.933-81.067 140.8-204.8-89.6-8.533-187.733-8.533-281.6 0 29.867 123.733 89.6 204.8 140.8 204.8zM341.333 448c0 51.2 4.267 98.133 8.533 140.8 55.467-8.533 106.667-12.8 162.133-12.8s106.667 4.267 162.133 12.8c8.533-42.667 8.533-89.6 8.533-140.8s-4.267-98.133-8.533-140.8c-106.667 12.8-217.6 12.8-320 0-8.533 42.667-12.8 89.6-12.8 140.8zM755.2 601.6c46.933 8.533 89.6 21.333 136.533 38.4 29.867-59.733 46.933-123.733 46.933-192s-17.067-132.267-46.933-192c-46.933 17.067-89.6 25.6-136.533 38.4 8.533 46.933 12.8 98.133 12.8 153.6s-4.267 106.667-12.8 153.6zM844.8 712.533c-34.133-12.8-68.267-21.333-106.667-25.6-12.8 59.733-34.133 110.933-59.733 153.6 68.267-29.867 123.733-72.533 166.4-128zM345.6 840.533c-25.6-42.667-46.933-93.867-64-153.6-34.133 4.267-68.267 12.8-102.4 25.6 42.667 55.467 98.133 98.133 166.4 128zM132.267 640c46.933-17.067 89.6-25.6 136.533-38.4-8.533-46.933-12.8-98.133-12.8-153.6s4.267-106.667 12.8-153.6c-46.933-8.533-89.6-21.333-136.533-38.4-29.867 59.733-46.933 123.733-46.933 192s17.067 132.267 46.933 192zM179.2 183.467c34.133 12.8 68.267 21.333 106.667 25.6 12.8-59.733 34.133-110.933 59.733-153.6-68.267 29.867-123.733 72.533-166.4 128zM678.4 55.467c25.6 42.667 46.933 93.867 59.733 153.6 34.133-8.533 72.533-17.067 106.667-25.6-42.667-55.467-98.133-98.133-166.4-128z" glyph-name="mbri-globe-2" unicode=""/><glyph d="M512 960c-281.6 0-512-230.4-512-512s230.4-512 512-512 512 230.4 512 512-230.4 512-512 512zM209.067 746.667h174.933c25.6 0 42.667-17.067 42.667-42.667s-17.067-42.667-42.667-42.667h-149.333c-59.733 0-106.667-46.933-106.667-106.667s46.933-106.667 106.667-106.667h21.333c25.6 0 42.667-17.067 42.667-42.667s-17.067-42.667-42.667-42.667h-162.133c-4.267 25.6-8.533 55.467-8.533 85.333 0 115.2 46.933 221.867 123.733 298.667zM119.467 277.333h136.533c72.533 0 128 55.467 128 128s-55.467 128-128 128h-21.333c-12.8 0-21.333 8.533-21.333 21.333s8.533 21.333 21.333 21.333h149.333c72.533 0 128 55.467 128 128s-55.467 128-128 128h-55.467c55.467 25.6 115.2 42.667 183.467 42.667 174.933 0 324.267-106.667 392.533-256h-179.2c-72.533 0-128-55.467-128-128s55.467-128 128-128h21.333c12.8 0 21.333-8.533 21.333-21.333s-8.533-21.333-21.333-21.333h-192c-72.533 0-128-55.467-128-128s55.467-128 128-128h140.8c-55.467-25.6-119.467-42.667-183.467-42.667-174.933 0-324.267 106.667-392.533 256zM814.933 149.333h-260.267c-25.6 0-42.667 17.067-42.667 42.667s17.067 42.667 42.667 42.667h192c59.733 0 106.667 46.933 106.667 106.667s-46.933 106.667-106.667 106.667h-21.333c-25.6 0-42.667 17.067-42.667 42.667s17.067 42.667 42.667 42.667h204.8c4.267-25.6 8.533-55.467 8.533-85.333 0-115.2-46.933-221.867-123.733-298.667z" glyph-name="mbri-globe" unicode=""/><glyph d="M1024 832v-298.667h-85.333v153.6l-384-384-128 128-366.933-366.933-59.733 59.733 426.667 426.667 128-128 324.267 324.267h-153.6v85.333h298.667z" glyph-name="mbri-growing-chart" unicode=""/><glyph d="M512-25.6l-422.4 422.4c-119.467 119.467-119.467 311.467 0 430.933 55.467 59.733 132.267 89.6 213.333 89.6h4.267c76.8 0 149.333-29.867 204.8-81.067 55.467 51.2 128 81.067 204.8 81.067 81.067 0 157.867-29.867 217.6-89.6s89.6-136.533 89.6-217.6c0-81.067-29.867-157.867-89.6-213.333l-422.4-422.4zM307.2 832c-59.733 0-115.2-21.333-157.867-64-85.333-85.333-85.333-226.133 0-311.467l362.667-362.667 362.667 362.667c42.667 42.667 64 98.133 64 153.6 0 59.733-21.333 115.2-64 157.867s-98.133 64-157.867 64-115.2-21.333-157.867-64l-46.933-51.2-51.2 51.2c-42.667 42.667-93.867 64-153.6 64z" glyph-name="mbri-hearth" unicode=""/><glyph d="M512 960c-281.6 0-512-230.4-512-512s230.4-512 512-512 512 230.4 512 512-230.4 512-512 512zM512 21.333c-234.667 0-426.667 192-426.667 426.667s192 426.667 426.667 426.667 426.667-192 426.667-426.667-192-426.667-426.667-426.667zM725.333 576c0-76.8-46.933-119.467-89.6-157.867s-81.067-68.267-81.067-140.8h-85.333c0 110.933 59.733 162.133 110.933 204.8 38.4 34.133 59.733 55.467 59.733 93.867 0 72.533-55.467 128-128 128s-128-55.467-128-128h-85.333c0 119.467 93.867 213.333 213.333 213.333s213.333-93.867 213.333-213.333zM469.333 192h85.333v-85.333h-85.333v85.333z" glyph-name="mbri-help" unicode=""/><glyph d="M512 883.2l-494.933-358.4 51.2-68.267 102.4 72.533v-507.733h682.667v507.733l102.4-76.8 51.2 68.267-494.933 362.667zM554.667 106.667h-85.333v213.333h85.333v-213.333zM768 106.667h-128v298.667h-256v-298.667h-128v486.4l256 187.733 256-187.733v-486.4z" glyph-name="mbri-home" unicode=""/><glyph d="M853.333 533.333h-42.667v128h-768v-469.333c0-140.8 115.2-256 256-256h256c128 0 230.4 93.867 251.733 213.333h46.933c93.867 0 170.667 76.8 170.667 170.667v42.667c0 93.867-76.8 170.667-170.667 170.667zM725.333 192c0-93.867-76.8-170.667-170.667-170.667h-256c-93.867 0-170.667 76.8-170.667 170.667v384h597.333v-384zM938.667 320c0-46.933-38.4-85.333-85.333-85.333h-42.667v213.333h42.667c46.933 0 85.333-38.4 85.333-85.333v-42.667zM384 746.667h-85.333v213.333h85.333v-213.333zM554.667 746.667h-85.333v85.333h85.333v-85.333z" glyph-name="mbri-hot-cup" unicode=""/><glyph d="M554.667 874.667h-85.333v85.333h85.333v-85.333zM42.667 448h85.333v85.333h-85.333v-85.333zM896 533.333v-85.333h85.333v85.333h-85.333zM268.8 793.6l-59.733 59.733-59.733-59.733 59.733-59.733 59.733 59.733zM755.2 187.733l59.733-59.733 59.733 59.733-59.733 59.733-59.733-59.733zM149.333 187.733l59.733-59.733 59.733 59.733-59.733 59.733-59.733-59.733zM755.2 793.6l59.733-59.733 59.733 59.733-59.733 59.733-59.733-59.733zM810.667 490.667c0-98.133-46.933-187.733-128-243.2v-140.8c0-93.867-76.8-170.667-170.667-170.667s-170.667 76.8-170.667 170.667v140.8c-81.067 55.467-128 149.333-128 243.2 0 166.4 132.267 298.667 298.667 298.667s298.667-132.267 298.667-298.667zM725.333 490.667c0 119.467-93.867 213.333-213.333 213.333s-213.333-93.867-213.333-213.333c0-76.8 42.667-145.067 106.667-183.467l21.333-12.8v-187.733c0-46.933 38.4-85.333 85.333-85.333s85.333 38.4 85.333 85.333v187.733l21.333 12.8c64 38.4 106.667 106.667 106.667 183.467z" glyph-name="mbri-idea" unicode=""/><glyph d="M1024 622.933l-554.667 251.733-72.533-157.867-396.8-179.2 256-558.933 349.867 162.133 162.133-76.8 256 558.933zM298.667 93.867l-183.467 401.067 226.133 102.4-128-277.333 290.133-132.267-204.8-93.867zM328.533 358.4l183.467 401.067 396.8-179.2-183.467-401.067-396.8 179.2z" glyph-name="mbri-image-gallery" unicode=""/><glyph d="M0 960v-853.333h1024v853.333h-1024zM162.133 192l264.533 264.533 264.533-264.533h-529.067zM938.667 192h-128l-238.933 238.933 196.267 196.267 170.667-170.667v-264.533zM938.667 576l-170.667 170.667-256-256-85.333 85.333-341.333-341.333v640h853.333v-298.667zM256 576c72.533 0 128 55.467 128 128s-55.467 128-128 128-128-55.467-128-128 55.467-128 128-128zM256 746.667c25.6 0 42.667-17.067 42.667-42.667s-17.067-42.667-42.667-42.667-42.667 17.067-42.667 42.667 17.067 42.667 42.667 42.667zM469.333 21.333h85.333v-85.333h-85.333v85.333zM640 21.333h85.333v-85.333h-85.333v85.333zM298.667 21.333h85.333v-85.333h-85.333v85.333z" glyph-name="mbri-image-slider" unicode=""/><glyph d="M512 960c-281.6 0-512-230.4-512-512s230.4-512 512-512 512 230.4 512 512-230.4 512-512 512zM512 21.333c-234.667 0-426.667 192-426.667 426.667s192 426.667 426.667 426.667 426.667-192 426.667-426.667-192-426.667-426.667-426.667zM554.667 661.333h-85.333v85.333h85.333v-85.333zM554.667 149.333h-85.333v426.667h85.333v-426.667z" glyph-name="mbri-info" unicode=""/><glyph d="M507.733-64c-55.467 0-85.333 25.6-98.133 46.933-42.667 64-25.6 192 59.733 396.8 102.4 234.667 81.067 298.667 72.533 311.467-4.267 4.267-8.533 12.8-29.867 12.8-25.6 0-64-46.933-98.133-81.067l-59.733 55.467c46.933 55.467 98.133 110.933 157.867 110.933 55.467 0 85.333-25.6 102.4-51.2 42.667-68.267 25.6-192-64-392.533-98.133-238.933-76.8-298.667-68.267-315.733 0-4.267 8.533-8.533 25.6-8.533 25.6 0 64 46.933 98.133 81.067l64-55.467c-51.2-55.467-102.4-110.933-162.133-110.933zM576 960c-34.133 0-64-29.867-64-64s29.867-64 64-64 64 29.867 64 64-29.867 64-64 64z" glyph-name="mbri-italic" unicode=""/><glyph d="M422.4 490.667c-21.333 98.133-106.667 170.667-209.067 170.667-119.467 0-213.333-93.867-213.333-213.333s93.867-213.333 213.333-213.333c102.4 0 187.733 72.533 209.067 170.667h302.933v-170.667h85.333v170.667h128v-170.667h85.333v256h-601.6zM213.333 320c-72.533 0-128 55.467-128 128s55.467 128 128 128 128-55.467 128-128-55.467-128-128-128z" glyph-name="mbri-key" unicode=""/><glyph d="M938.667 277.333v512h-853.333v-512h-85.333v-213.333h1024v213.333h-85.333zM938.667 149.333h-853.333v42.667h853.333v-42.667zM170.667 704h682.667v-426.667h-682.667v426.667z" glyph-name="mbri-laptop" unicode=""/><glyph d="M1024 661.333l-512 298.667-512-298.667 512-298.667 512 298.667zM512 861.867l345.6-200.533-345.6-200.533-345.6 200.533 345.6 200.533zM960 533.333l46.933-72.533-494.933-311.467-490.667 311.467 42.667 72.533 448-281.6 448 281.6zM960 320l46.933-72.533-494.933-311.467-490.667 311.467 42.667 72.533 448-281.6 448 281.6z" glyph-name="mbri-layers" unicode=""/><glyph d="M678.4 674.133l59.733 59.733 285.867-285.867-285.867-285.867-59.733 59.733 183.467 183.467h-699.733l183.467-183.467-59.733-59.733-285.867 285.867 285.867 285.867 59.733-59.733-183.467-183.467h699.733l-183.467 183.467z" glyph-name="mbri-left-right" unicode=""/><glyph d="M0 490.667l285.867-285.867 59.733 59.733-183.467 183.467h861.867v85.333h-861.867l183.467 183.467-59.733 59.733-285.867-285.867z" glyph-name="mbri-left" unicode=""/><glyph d="M0 789.333v-682.667h1024v682.667h-1024zM844.8 704l-332.8-200.533-332.8 200.533h665.6zM85.333 192v469.333l426.667-256 426.667 256v-469.333h-853.333z" glyph-name="mbri-letter" unicode=""/><glyph d="M665.6 533.333l59.733 119.467v264.533h-204.8l-46.933-192-132.267-157.867v51.2h-341.333v-640h341.333v46.933l72.533-46.933h460.8l149.333 554.667h-358.4zM256 64h-170.667v469.333h170.667v-469.333zM806.4 64h-366.933l-98.133 64v302.933l209.067 251.733 38.4 149.333h51.2v-162.133l-110.933-221.867h384l-106.667-384z" glyph-name="mbri-like" unicode=""/><glyph d="M682.667 362.667l341.333 341.333-256 256-341.333-341.333 93.867-93.867-85.333-85.333-93.867 93.867-341.333-341.333 256-256 341.333 341.333-93.867 93.867 85.333 85.333 93.867-93.867zM469.333 277.333l-213.333-213.333-128 128 213.333 213.333 29.867-29.867-72.533-76.8 64-64 72.533 72.533 34.133-29.867zM554.667 618.667l213.333 213.333 128-128-213.333-213.333-29.867 29.867 72.533 76.8-64 64-72.533-72.533-34.133 29.867z" glyph-name="mbri-link" unicode=""/><glyph d="M768 533.333v170.667c0 140.8-115.2 256-256 256s-256-115.2-256-256v-170.667h-85.333v-597.333h682.667v597.333h-85.333zM341.333 704c0 93.867 76.8 170.667 170.667 170.667s170.667-76.8 170.667-170.667v-170.667h-341.333v170.667zM768 21.333h-512v426.667h512v-426.667z" glyph-name="mbri-lock" unicode=""/><glyph d="M648.533 405.333h-605.867v85.333h605.867l-140.8 140.8 59.733 59.733 243.2-243.2-243.2-243.2-59.733 59.733 140.8 140.8zM341.333 960v-341.333h85.333v256h469.333v-853.333h-469.333v256h-85.333v-341.333h640v1024h-640z" glyph-name="mbri-login" unicode=""/><glyph d="M861.867 405.333h-605.867v85.333h605.867l-140.8 140.8 59.733 59.733 243.2-243.2-243.2-243.2-59.733 59.733 140.8 140.8zM640 960v-341.333h-85.333v256h-469.333v-853.333h469.333v256h85.333v-341.333h-640v1024h640z" glyph-name="mbri-logout" unicode=""/><glyph d="M682.667 789.333c-93.867 0-170.667-76.8-170.667-170.667 0-29.867 8.533-59.733 25.6-85.333l-537.6-537.6 59.733-59.733 537.6 537.6c25.6-17.067 55.467-25.6 85.333-25.6 93.867 0 170.667 76.8 170.667 170.667s-76.8 170.667-170.667 170.667zM682.667 533.333c-46.933 0-85.333 38.4-85.333 85.333s38.4 85.333 85.333 85.333 85.333-38.4 85.333-85.333-38.4-85.333-85.333-85.333zM725.333 874.667h-85.333v85.333h85.333v-85.333zM640 362.667h85.333v-85.333h-85.333v85.333zM426.667 576h-85.333v85.333h85.333v-85.333zM1024 661.333v-85.333h-85.333v85.333h85.333zM891.733 768l-59.733 59.733 59.733 59.733 59.733-59.733-59.733-59.733zM891.733 469.333l59.733-59.733-59.733-59.733-59.733 59.733 59.733 59.733zM473.6 768l-64 59.733 59.733 59.733 59.733-59.733-55.467-59.733z" glyph-name="mbri-magic-stick" unicode=""/><glyph d="M512 960c-213.333 0-384-170.667-384-384 0-315.733 345.6-610.133 358.4-618.667l25.6-21.333 25.6 21.333c12.8 8.533 358.4 302.933 358.4 618.667 0 213.333-170.667 384-384 384zM512 42.667c-76.8 68.267-298.667 307.2-298.667 533.333 0 166.4 132.267 298.667 298.667 298.667s298.667-132.267 298.667-298.667c0-226.133-221.867-465.067-298.667-533.333zM512 746.667c-93.867 0-170.667-76.8-170.667-170.667s76.8-170.667 170.667-170.667 170.667 76.8 170.667 170.667-76.8 170.667-170.667 170.667zM512 490.667c-46.933 0-85.333 38.4-85.333 85.333s38.4 85.333 85.333 85.333 85.333-38.4 85.333-85.333-38.4-85.333-85.333-85.333z" glyph-name="mbri-map-pin" unicode=""/><glyph d="M1024 746.667v-85.333h-1024v85.333h1024zM0 405.333h1024v85.333h-1024v-85.333zM0 149.333h1024v85.333h-1024v-85.333z" glyph-name="mbri-menu" unicode=""/><glyph d="M213.333 960v-1024h597.333v1024h-597.333zM725.333 21.333h-426.667v853.333h426.667v-853.333zM554.667 64h-85.333v85.333h85.333v-85.333z" glyph-name="mbri-mobile-2" unicode=""/><glyph d="M1024 746.667h-1024v-597.333h1024v597.333zM85.333 234.667v426.667h853.333v-426.667h-853.333zM128 405.333v85.333h85.333v-85.333h-85.333z" glyph-name="mbri-mobile-horizontal" unicode=""/><glyph d="M213.333 960v-1024h597.333v1024h-597.333zM725.333 21.333h-426.667v853.333h426.667v-853.333zM597.333 746.667h-170.667v85.333h170.667v-85.333zM426.667 64h-85.333v85.333h85.333v-85.333zM597.333 149.333h85.333v-85.333h-85.333v85.333zM554.667 64h-85.333v85.333h85.333v-85.333zM426.667 192h-85.333v85.333h85.333v-85.333zM597.333 277.333h85.333v-85.333h-85.333v85.333zM554.667 192h-85.333v85.333h85.333v-85.333zM426.667 320h-85.333v85.333h85.333v-85.333zM597.333 405.333h85.333v-85.333h-85.333v85.333zM554.667 320h-85.333v85.333h85.333v-85.333z" glyph-name="mbri-mobile" unicode=""/><glyph d="M682.667 789.333h-85.333v85.333h85.333v-85.333zM0 874.667h512v-853.333h-512v853.333zM85.333 106.667h341.333v682.667h-341.333v-682.667zM213.333 149.333h85.333v85.333h-85.333v-85.333zM938.667 490.667v-85.333h85.333v85.333h-85.333zM806.4 721.067l59.733-59.733 59.733 59.733-59.733 59.733-59.733-59.733zM806.4 174.933l59.733-59.733 59.733 59.733-59.733 59.733-59.733-59.733zM597.333 21.333h85.333v85.333h-85.333v-85.333zM597.333 704v-85.333c93.867 0 170.667-76.8 170.667-170.667s-76.8-170.667-170.667-170.667v-85.333c140.8 0 256 115.2 256 256s-115.2 256-256 256z" glyph-name="mbri-mobirise" unicode=""/><glyph d="M256 448c0-46.933-38.4-85.333-85.333-85.333s-85.333 38.4-85.333 85.333 38.4 85.333 85.333 85.333 85.333-38.4 85.333-85.333zM512 533.333c-46.933 0-85.333-38.4-85.333-85.333s38.4-85.333 85.333-85.333 85.333 38.4 85.333 85.333-38.4 85.333-85.333 85.333zM853.333 533.333c-46.933 0-85.333-38.4-85.333-85.333s38.4-85.333 85.333-85.333 85.333 38.4 85.333 85.333-38.4 85.333-85.333 85.333z" glyph-name="mbri-more-horizontal" unicode=""/><glyph d="M512 704c-46.933 0-85.333 38.4-85.333 85.333s38.4 85.333 85.333 85.333 85.333-38.4 85.333-85.333-38.4-85.333-85.333-85.333zM597.333 448c0 46.933-38.4 85.333-85.333 85.333s-85.333-38.4-85.333-85.333 38.4-85.333 85.333-85.333 85.333 38.4 85.333 85.333zM597.333 106.667c0 46.933-38.4 85.333-85.333 85.333s-85.333-38.4-85.333-85.333 38.4-85.333 85.333-85.333 85.333 38.4 85.333 85.333z" glyph-name="mbri-more-vertical" unicode=""/><glyph d="M298.667 810.667v-627.2c-12.8 4.267-25.6 8.533-42.667 8.533-72.533 0-128-55.467-128-128s55.467-128 128-128 128 55.467 128 128v507.733l426.667 106.667v-366.933c-12.8 4.267-25.6 8.533-42.667 8.533-72.533 0-128-55.467-128-128s55.467-128 128-128 128 55.467 128 128v768l-597.333-149.333zM256 21.333c-25.6 0-42.667 17.067-42.667 42.667s17.067 42.667 42.667 42.667 42.667-17.067 42.667-42.667-17.067-42.667-42.667-42.667zM384 661.333v81.067l426.667 106.667v-81.067l-426.667-106.667zM768 149.333c-25.6 0-42.667 17.067-42.667 42.667s17.067 42.667 42.667 42.667 42.667-17.067 42.667-42.667-17.067-42.667-42.667-42.667z" glyph-name="mbri-music" unicode=""/><glyph d="M614.4 960h-486.4v-1024h768v742.4l-281.6 281.6zM640 814.933l110.933-110.933h-110.933v110.933zM213.333 21.333v853.333h341.333v-256h256v-597.333h-597.333z" glyph-name="mbri-new-file" unicode=""/><glyph d="M1024 832v-85.333h-597.333v85.333h597.333zM426.667 64h597.333v85.333h-597.333v-85.333zM426.667 405.333h597.333v85.333h-597.333v-85.333zM0 661.333h85.333v256h-85.333v-256zM0 320h85.333v256h-85.333v-256zM128 320h85.333v256h-85.333v-256zM0-21.333h85.333v256h-85.333v-256zM128-21.333h85.333v256h-85.333v-256zM256-21.333h85.333v256h-85.333v-256z" glyph-name="mbri-numbered-list" unicode=""/><glyph d="M896 533.333v170.667h-409.6l-128 128h-358.4v-810.667h896l128 512h-128zM85.333 746.667h238.933l128-128h358.4v-85.333h-695.467l-29.867-123.733v337.067zM827.733 106.667h-729.6l85.333 341.333h733.867l-89.6-341.333z" glyph-name="mbri-opened-folder" unicode=""/><glyph d="M614.4 960h-358.4v-853.333h640v571.733l-281.6 281.6zM640 814.933l110.933-110.933h-110.933v110.933zM810.667 192h-469.333v682.667h213.333v-256h256v-426.667zM170.667 21.333h554.667v-85.333h-640v853.333h85.333v-768z" glyph-name="mbri-pages" unicode=""/><glyph d="M29.867 537.6l362.667-204.8 106.667-366.933 145.067 200.533 200.533-132.267 153.6 908.8-968.533-405.333zM221.867 524.8l529.067 226.133-332.8-332.8-196.267 106.667zM529.067 157.867l-29.867 106.667 72.533-46.933-42.667-59.733zM780.8 179.2l-285.867 192 379.733 379.733-93.867-571.733z" glyph-name="mbri-paper-plane" unicode=""/><glyph d="M298.667-64c-76.8 0-153.6 29.867-209.067 85.333-59.733 59.733-89.6 132.267-89.6 213.333s29.867 153.6 89.6 209.067l443.733 452.267c42.667 42.667 93.867 64 149.333 64s110.933-21.333 149.333-64 64-93.867 64-149.333c0-55.467-21.333-110.933-64-149.333l-443.733-452.267c-51.2-51.2-132.267-51.2-179.2 0s-51.2 132.267 0 179.2l362.667 362.667 59.733-59.733-362.667-362.667c-17.067-17.067-17.067-42.667 0-59.733s42.667-17.067 59.733 0l443.733 452.267c25.6 21.333 38.4 55.467 38.4 89.6s-12.8 68.267-38.4 89.6c-46.933 46.933-132.267 46.933-179.2 0l-443.733-452.267c-42.667-42.667-64-93.867-64-149.333s21.333-110.933 64-149.333c81.067-81.067 217.6-81.067 302.933 0l384 384 59.733-59.733-384-384c-59.733-59.733-136.533-89.6-213.333-89.6z" glyph-name="mbri-paperclip" unicode=""/><glyph d="M806.4-64l-29.867 17.067c-162.133 89.6-307.2 192-439.467 324.267-128 128-234.667 273.067-320 435.2l-17.067 29.867 217.6 217.6 264.533-264.533-85.333-123.733 234.667-234.667 123.733 85.333 264.533-264.533-213.333-221.867zM396.8 332.8c119.467-115.2 247.467-213.333 392.533-294.4l115.2 115.2-153.6 153.6-123.733-85.333-337.067 337.067 85.333 123.733-157.867 157.867-110.933-115.2c81.067-145.067 174.933-273.067 290.133-392.533z" glyph-name="mbri-phone" unicode=""/><glyph d="M1024 960h-853.333v-853.333h853.333v853.333zM938.667 192h-682.667v682.667h682.667v-682.667zM0 746.667v-810.667h810.667v85.333h-725.333v725.333h-85.333zM371.2 230.4l-59.733 59.733 200.533 204.8 85.333-85.333 170.667 170.667 115.2-115.2-59.733-59.733-55.467 51.2-170.667-170.667-85.333 85.333-140.8-140.8zM341.333 725.333c0 34.133 29.867 64 64 64s64-29.867 64-64-29.867-64-64-64-64 29.867-64 64z" glyph-name="mbri-photo" unicode=""/><glyph d="M0 874.667v-853.333h1024v853.333h-1024zM938.667 789.333v-298.667l-170.667 170.667-256-256-85.333 85.333-341.333-341.333v640h853.333zM691.2 106.667h-529.067l264.533 264.533 264.533-264.533zM810.667 106.667l-238.933 238.933 196.267 196.267 170.667-170.667v-264.533h-128zM256 490.667c72.533 0 128 55.467 128 128s-55.467 128-128 128-128-55.467-128-128 55.467-128 128-128zM256 661.333c25.6 0 42.667-17.067 42.667-42.667s-17.067-42.667-42.667-42.667-42.667 17.067-42.667 42.667 17.067 42.667 42.667 42.667z" glyph-name="mbri-photos" unicode=""/><glyph d="M691.2 960l-149.333-149.333 59.733-59.733-93.867-93.867-149.333-25.6-59.733 59.733-179.2-179.2 196.267-196.267-315.733-320 59.733-59.733 315.733 315.733 196.267-196.267 179.2 179.2-55.467 55.467 21.333 149.333 93.867 93.867 59.733-59.733 153.6 153.6-332.8 332.8zM571.733 174.933l-332.8 332.8 59.733 59.733 332.8-332.8-59.733-59.733zM814.933 657.067l-174.933-174.933-17.067-115.2-187.733 187.733 115.2 17.067 174.933 174.933-59.733 59.733 29.867 29.867 213.333-209.067-29.867-29.867-64 59.733z" glyph-name="mbri-pin" unicode=""/><glyph d="M85.333-64v1024l853.333-512-853.333-512zM170.667 810.667v-721.067l597.333 358.4-597.333 362.667z" glyph-name="mbri-play" unicode=""/><glyph d="M1024 405.333h-469.333v-469.333h-85.333v469.333h-469.333v85.333h469.333v469.333h85.333v-469.333h469.333v-85.333z" glyph-name="mbri-plus" unicode=""/><glyph d="M512 192c-187.733 0-366.933 85.333-490.667 230.4l-21.333 25.6 21.333 25.6c123.733 145.067 302.933 230.4 490.667 230.4s366.933-85.333 490.667-230.4l21.333-25.6-21.333-25.6c-123.733-145.067-302.933-230.4-490.667-230.4zM110.933 448c102.4-110.933 247.467-170.667 401.067-170.667s294.4 59.733 401.067 170.667c-102.4 110.933-247.467 170.667-401.067 170.667s-294.4-59.733-401.067-170.667zM512 320c-72.533 0-128 55.467-128 128s55.467 128 128 128 128-55.467 128-128-55.467-128-128-128zM512 490.667c-25.6 0-42.667-17.067-42.667-42.667s17.067-42.667 42.667-42.667 42.667 17.067 42.667 42.667-17.067 42.667-42.667 42.667z" glyph-name="mbri-preview" unicode=""/><glyph d="M0 704v-597.333h170.667v-170.667h682.667v170.667h170.667v597.333h-1024zM768 21.333h-512v256h512v-256zM938.667 192h-85.333v170.667h-682.667v-170.667h-85.333v426.667h853.333v-426.667zM256 789.333h-85.333v170.667h682.667v-170.667h-85.333v85.333h-512v-85.333zM853.333 448h-85.333v85.333h85.333v-85.333z" glyph-name="mbri-print" unicode=""/><glyph d="M512-68.267l-17.067 4.267c-221.867 93.867-366.933 277.333-366.933 469.333v409.6l384 145.067 384-145.067v-409.6c0-192-145.067-375.467-366.933-465.067l-17.067-8.533zM213.333 755.2v-349.867c0-153.6 115.2-302.933 298.667-379.733 183.467 76.8 298.667 226.133 298.667 379.733v349.867l-298.667 110.933-298.667-110.933zM755.2 588.8l-59.733 59.733-226.133-226.133-98.133 98.133-59.733-59.733 157.867-157.867 285.867 285.867z" glyph-name="mbri-protect" unicode=""/><glyph d="M853.333 618.667c0-119.467-76.8-192-153.6-260.267-72.533-72.533-145.067-136.533-145.067-251.733h-85.333c0 153.6 93.867 238.933 174.933 311.467 64 64 123.733 119.467 123.733 200.533 0 140.8-115.2 256-256 256s-256-115.2-256-256h-85.333c0 187.733 153.6 341.333 341.333 341.333s341.333-153.6 341.333-341.333zM469.333-64h85.333v85.333h-85.333v-85.333z" glyph-name="mbri-question" unicode=""/><glyph d="M345.6 849.067l-302.933-251.733v-490.667h426.667v426.667h-153.6l170.667 170.667-140.8 145.067zM384 448v-256h-256v362.667l209.067 174.933 29.867-25.6-153.6-153.6v-102.4h170.667zM998.4 704l-145.067 145.067-298.667-251.733v-490.667h426.667v426.667h-153.6l170.667 170.667zM896 448v-256h-256v362.667l209.067 174.933 29.867-25.6-153.6-153.6v-102.4h170.667z" glyph-name="mbri-quote-left" unicode=""/><glyph d="M678.4 89.6l302.933 251.733v490.667h-426.667v-426.667h153.6l-170.667-170.667 140.8-145.067zM640 490.667v256h256v-362.667l-209.067-174.933-29.867 25.6 153.6 153.6v102.4h-170.667zM25.6 234.667l145.067-145.067 302.933 251.733v490.667h-430.933v-426.667h153.6l-170.667-170.667zM128 490.667v256h256v-362.667l-209.067-174.933-29.867 25.6 153.6 153.6v102.4h-170.667z" glyph-name="mbri-quote-right" unicode=""/><glyph d="M0 290.133l85.333-25.6c21.333 68.267 59.733 136.533 115.2 187.733 170.667 166.4 452.267 166.4 627.2 0 38.4-38.4 68.267-85.333 93.867-132.267h-324.267v-85.333h426.667v426.667h-85.333v-209.067c-17.067 21.333-34.133 42.667-51.2 59.733-204.8 196.267-541.867 196.267-746.667 0-68.267-59.733-115.2-136.533-140.8-221.867z" glyph-name="mbri-redo" unicode=""/><glyph d="M640 704h217.6l-46.933 46.933c-162.133 166.4-435.2 166.4-601.6 0s-166.4-439.467 0-605.867c81.067-81.067 187.733-123.733 302.933-123.733s221.867 42.667 302.933 123.733l59.733-59.733c-102.4-98.133-230.4-149.333-362.667-149.333s-260.267 51.2-362.667 149.333c-200.533 200.533-200.533 524.8 0 725.333s524.8 200.533 725.333 0l21.333-21.333v170.667h85.333v-341.333h-341.333v85.333z" glyph-name="mbri-refresh" unicode=""/><glyph d="M768 192h85.333v-85.333h-85.333zM938.667 661.333v256h-938.667v-640h426.667v-85.333h-170.667v-85.333h341.333v-128h426.667v682.667h-85.333zM85.333 362.667v469.333h768v-170.667h-256v-298.667h-512zM512 192v85.333h85.333v-85.333h-85.333zM938.667 64h-256v512h256v-512z" glyph-name="mbri-responsive-2" unicode=""/><glyph d="M938.667 746.667v170.667h-938.667v-682.667h597.333v-256h426.667v768h-85.333zM85.333 320v512h768v-85.333h-256v-426.667h-512zM938.667 64h-256v597.333h256v-597.333zM853.333 106.667h-85.333v85.333h85.333v-85.333zM128 618.667h85.333v-85.333h-85.333v85.333z" glyph-name="mbri-responsive" unicode=""/><glyph d="M1024 490.667l-285.867-285.867-59.733 59.733 183.467 183.467h-861.867v85.333h861.867l-183.467 183.467 59.733 59.733 285.867-285.867z" glyph-name="mbri-right" unicode=""/><glyph d="M725.333 294.4v110.933c0 12.8 21.333 324.267-183.467 529.067l-29.867 25.6-29.867-29.867c-204.8-204.8-183.467-516.267-183.467-524.8v-115.2l-170.667-311.467 76.8-42.667 93.867 170.667v-85.333h170.667v-85.333h85.333v85.333h170.667v89.6l93.867-174.933 76.8 46.933-170.667 311.467zM640 405.333v-298.667h-85.333v170.667h-85.333v-170.667h-85.333v302.933c0 4.267-17.067 256 128 426.667 140.8-170.667 128-426.667 128-430.933zM512 618.667c46.933 0 85.333-38.4 85.333-85.333s-38.4-85.333-85.333-85.333-85.333 38.4-85.333 85.333 38.4 85.333 85.333 85.333z" glyph-name="mbri-rocket" unicode=""/><glyph d="M512 960c-281.6 0-512-230.4-512-512s230.4-512 512-512 512 230.4 512 512-230.4 512-512 512zM512 21.333c-234.667 0-426.667 192-426.667 426.667s192 426.667 426.667 426.667 426.667-192 426.667-426.667-192-426.667-426.667-426.667zM320 448c-34.133 0-64 29.867-64 64s29.867 64 64 64 64-29.867 64-64-29.867-64-64-64zM768 512c0-34.133-29.867-64-64-64s-64 29.867-64 64 29.867 64 64 64 64-29.867 64-64zM362.667 170.667l-59.733 59.733c115.2 115.2 307.2 115.2 422.4 0l-59.733-59.733c-85.333 85.333-221.867 85.333-302.933 0z" glyph-name="mbri-sad-face" unicode=""/><glyph d="M657.067 874.667h-102.4v85.333h-85.333v-85.333h-102.4l-196.267-196.267v-742.4h682.667v742.4l-196.267 196.267zM768 21.333h-512v622.933l145.067 145.067h68.267v-98.133c-25.6-12.8-42.667-42.667-42.667-72.533 0-46.933 38.4-85.333 85.333-85.333s85.333 38.4 85.333 85.333c0 29.867-17.067 59.733-42.667 72.533v98.133h68.267l145.067-145.067v-622.933zM597.333 192h85.333v-85.333h-85.333v85.333zM426.667 362.667h-85.333v85.333h85.333v-85.333zM622.933 448l59.733-59.733-281.6-281.6-59.733 59.733 281.6 281.6z" glyph-name="mbri-sale" unicode=""/><glyph d="M827.733 960h-827.733v-1024h1024v827.733l-196.267 196.267zM725.333 874.667v-170.667h-426.667v170.667h426.667zM938.667 21.333h-853.333v853.333h128v-256h597.333v238.933l128-128v-708.267zM512 448c-72.533 0-128-55.467-128-128s55.467-128 128-128 128 55.467 128 128-55.467 128-128 128zM512 277.333c-25.6 0-42.667 17.067-42.667 42.667s17.067 42.667 42.667 42.667 42.667-17.067 42.667-42.667-17.067-42.667-42.667-42.667z" glyph-name="mbri-save" unicode=""/><glyph d="M1011.2 8.533l-401.067 401.067c46.933 59.733 72.533 132.267 72.533 209.067 0 187.733-153.6 341.333-341.333 341.333s-341.333-153.6-341.333-341.333 153.6-341.333 341.333-341.333c76.8 0 149.333 25.6 209.067 72.533l401.067-401.067 59.733 59.733zM341.333 362.667c-140.8 0-256 115.2-256 256s115.2 256 256 256 256-115.2 256-256-115.2-256-256-256z" glyph-name="mbri-search" unicode=""/><glyph d="M810.667 149.333h-42.667v85.333h42.667v725.333h85.333v-725.333h42.667v-85.333h-42.667v-213.333h-85.333v213.333zM469.333-64h85.333v725.333h42.667v85.333h-42.667v213.333h-85.333v-213.333h-42.667v-85.333h42.667v-725.333zM128-64h85.333v213.333h42.667v85.333h-42.667v725.333h-85.333v-725.333h-42.667v-85.333h42.667v-213.333z" glyph-name="mbri-setting-2" unicode=""/><glyph d="M725.333 405.333c-55.467 0-102.4-34.133-119.467-85.333h-605.867v-85.333h605.867c17.067-51.2 64-85.333 119.467-85.333s102.4 34.133 119.467 85.333h179.2v85.333h-179.2c-17.067 51.2-64 85.333-119.467 85.333zM725.333 234.667c-25.6 0-42.667 17.067-42.667 42.667s17.067 42.667 42.667 42.667 42.667-17.067 42.667-42.667-17.067-42.667-42.667-42.667zM418.133 661.333c-17.067 51.2-64 85.333-119.467 85.333s-102.4-34.133-119.467-85.333h-179.2v-85.333h179.2c17.067-51.2 64-85.333 119.467-85.333s102.4 34.133 119.467 85.333h605.867v85.333h-605.867zM298.667 576c-25.6 0-42.667 17.067-42.667 42.667s17.067 42.667 42.667 42.667 42.667-17.067 42.667-42.667-17.067-42.667-42.667-42.667z" glyph-name="mbri-setting-3" unicode=""/><glyph d="M1024 328.533v238.933l-123.733 29.867-8.533 21.333 68.267 106.667-170.667 170.667-106.667-68.267-25.6 8.533-25.6 123.733h-238.933l-29.867-123.733-21.333-8.533-106.667 68.267-170.667-170.667 68.267-106.667-8.533-21.333-123.733-29.867v-238.933l123.733-29.867 8.533-21.333-68.267-106.667 170.667-170.667 106.667 68.267 25.6-8.533 25.6-123.733h238.933l29.867 123.733 25.6 8.533 106.667-68.267 170.667 170.667-72.533 106.667 8.533 25.6 123.733 25.6zM849.067 183.467l-72.533-72.533-85.333 55.467-106.667-42.667-21.333-102.4h-102.4l-21.333 98.133-106.667 42.667-85.333-55.467-72.533 72.533 55.467 85.333-42.667 106.667-102.4 25.6v102.4l98.133 21.333 42.667 106.667-55.467 85.333 72.533 72.533 85.333-55.467 106.667 42.667 25.6 102.4h102.4l21.333-98.133 106.667-42.667 85.333 55.467 72.533-72.533-55.467-85.333 42.667-106.667 98.133-21.333v-102.4l-98.133-21.333-42.667-106.667 55.467-89.6zM512 661.333c-119.467 0-213.333-93.867-213.333-213.333s93.867-213.333 213.333-213.333 213.333 93.867 213.333 213.333-93.867 213.333-213.333 213.333zM512 320c-72.533 0-128 55.467-128 128s55.467 128 128 128 128-55.467 128-128-55.467-128-128-128z" glyph-name="mbri-setting" unicode=""/><glyph d="M0 17.067v132.267c0 281.6 260.267 516.267 597.333 550.4v192l401.067-401.067-401.067-401.067v230.4c-264.533-12.8-426.667-81.067-520.533-192-25.6-38.4-76.8-110.933-76.8-110.933zM682.667 686.933v-68.267h-38.4c-256-12.8-469.333-157.867-533.333-341.333 115.2 81.067 294.4 128 533.333 132.267h42.667v-110.933l196.267 196.267-200.533 192z" glyph-name="mbri-share" unicode=""/><glyph d="M891.733 704h-166.4v42.667c0 119.467-93.867 213.333-213.333 213.333s-213.333-93.867-213.333-213.333v-42.667h-166.4l-51.2-768h857.6l-46.933 768zM384 746.667c0 72.533 55.467 128 128 128s128-55.467 128-128v-42.667h-256v42.667zM174.933 21.333l34.133 597.333h89.6v-85.333h85.333v85.333h256v-85.333h85.333v85.333h89.6l38.4-597.333h-678.4z" glyph-name="mbri-shopping-bag" unicode=""/><glyph d="M839.68 550.4l-194.56 389.12-61.44-30.72 180.907-358.4h-505.173l180.907 361.813-61.44 30.72-194.56-392.533h-184.32l116.053-614.4h791.893l116.053 614.4h-184.32zM853.333 4.267h-682.667l-88.747 477.867h860.16l-88.747-477.867z" glyph-name="mbri-shopping-basket" unicode=""/><glyph d="M896 149.333h-674.133l-128 640h-93.867v85.333h162.133l34.133-170.667h785.067l-51.2-384h-657.067l17.067-85.333h605.867v-85.333zM256 405.333h597.333l29.867 213.333h-669.867l42.667-213.333zM341.333 106.667c-46.933 0-85.333-38.4-85.333-85.333s38.4-85.333 85.333-85.333 85.333 38.4 85.333 85.333-38.4 85.333-85.333 85.333zM768 106.667c-46.933 0-85.333-38.4-85.333-85.333s38.4-85.333 85.333-85.333 85.333 38.4 85.333 85.333-38.4 85.333-85.333 85.333z" glyph-name="mbri-shopping-cart" unicode=""/><glyph d="M1024 192v682.667h-1024v-682.667h384v-85.333h-85.333v-85.333h426.667v85.333h-85.333v85.333h384zM554.667 106.667h-85.333v85.333h85.333v-85.333zM85.333 277.333v512h853.333v-512h-853.333zM512 661.333h341.333v-85.333h-341.333v85.333zM512 490.667h170.667v-85.333h-170.667v85.333zM170.667 405.333h256v256h-256v-256zM256 576h85.333v-85.333h-85.333v85.333z" glyph-name="mbri-sites" unicode=""/><glyph d="M512 960c-281.6 0-512-230.4-512-512s230.4-512 512-512 512 230.4 512 512-230.4 512-512 512zM512 21.333c-234.667 0-426.667 192-426.667 426.667s192 426.667 426.667 426.667 426.667-192 426.667-426.667-192-426.667-426.667-426.667zM661.333 298.667l59.733-59.733c-59.733-59.733-136.533-85.333-209.067-85.333-76.8 0-153.6 29.867-209.067 85.333l59.733 59.733c81.067-85.333 217.6-85.333 298.667 0zM320 448c-34.133 0-64 29.867-64 64s29.867 64 64 64 64-29.867 64-64-29.867-64-64-64zM768 512c0-34.133-29.867-64-64-64s-64 29.867-64 64 29.867 64 64 64 64-29.867 64-64z" glyph-name="mbri-smile-face" unicode=""/><glyph d="M874.667 42.667l-59.733 59.733c166.4 166.4 166.4 435.2 0 601.6-166.4 170.667-439.467 170.667-605.867 4.267s-166.4-439.467 0-605.867l-59.733-59.733c-200.533 200.533-200.533 524.8 0 725.333s524.8 200.533 725.333 0c200.533-200.533 200.533-524.8 0-725.333zM426.667 430.933l281.6-281.6 59.733 59.733-281.6 281.6-59.733-59.733z" glyph-name="mbri-speed" unicode=""/><glyph d="M827.733-25.6l-315.733 230.4-315.733-230.4 119.467 371.2-315.733 230.4h392.533l119.467 371.2 119.467-371.2h392.533l-315.733-230.4 119.467-371.2zM512 311.467l153.6-110.933-59.733 179.2 153.6 110.933h-187.733l-59.733 179.2-59.733-179.2h-187.733l153.6-110.933-59.733-179.2 153.6 110.933z" glyph-name="mbri-star" unicode=""/><glyph d="M384 64l-384 384 59.733 59.733 324.267-324.267 580.267 580.267 59.733-59.733-640-640z" glyph-name="mbri-success" unicode=""/><glyph d="M469.333 106.667h85.333v-170.667h-85.333v170.667zM554.667 960h-85.333v-170.667h85.333v170.667zM170.667 490.667h-170.667v-85.333h170.667v85.333zM853.333 490.667v-85.333h170.667v85.333h-170.667zM721.067 174.933l119.467-119.467 59.733 59.733-119.467 119.467-59.733-59.733zM302.933 721.067l-123.733 119.467-59.733-59.733 119.467-119.467 64 59.733zM119.467 115.2l59.733-59.733 119.467 119.467-59.733 59.733-119.467-119.467zM904.533 780.8l-59.733 59.733-119.467-119.467 59.733-59.733 119.467 119.467zM768 448c0-140.8-115.2-256-256-256s-256 115.2-256 256 115.2 256 256 256 256-115.2 256-256zM682.667 448c0 93.867-76.8 170.667-170.667 170.667s-170.667-76.8-170.667-170.667 76.8-170.667 170.667-170.667 170.667 76.8 170.667 170.667z" glyph-name="mbri-sun" unicode=""/><glyph d="M512 789.333c-187.733 0-341.333-153.6-341.333-341.333s153.6-341.333 341.333-341.333 341.333 153.6 341.333 341.333-153.6 341.333-341.333 341.333zM512 192c-140.8 0-256 115.2-256 256s115.2 256 256 256 256-115.2 256-256-115.2-256-256-256zM554.667 874.667h-85.333v85.333h85.333v-85.333zM469.333 21.333h85.333v-85.333h-85.333v85.333zM0 490.667h85.333v-85.333h-85.333v85.333zM1024 490.667v-85.333h-85.333v85.333h85.333zM179.2 721.067l-59.733 59.733 59.733 59.733 59.733-59.733-59.733-59.733zM844.8 174.933l59.733-59.733-59.733-59.733-59.733 59.733 59.733 59.733zM179.2 174.933l59.733-59.733-59.733-59.733-59.733 59.733 59.733 59.733zM844.8 840.533l59.733-59.733-59.733-59.733-59.733 59.733 59.733 59.733z" glyph-name="mbri-sun2" unicode=""/><glyph d="M896-64h-768v1024h768v-1024zM213.333 21.333h597.333v853.333h-597.333v-853.333zM554.667 192h-85.333v-85.333h85.333v85.333z" glyph-name="mbri-tablet-vertical" unicode=""/><glyph d="M0 64v768h1024v-768h-1024zM85.333 746.667v-597.333h853.333v597.333h-853.333zM256 405.333v85.333h-85.333v-85.333h85.333z" glyph-name="mbri-tablet" unicode=""/><glyph d="M1024 490.667h-89.6c-21.333 200.533-179.2 362.667-379.733 379.733v89.6h-85.333v-89.6c-200.533-17.067-362.667-179.2-379.733-379.733h-89.6v-85.333h89.6c21.333-200.533 179.2-362.667 379.733-379.733v-89.6h85.333v89.6c200.533 21.333 362.667 179.2 379.733 379.733h89.6v85.333zM512 106.667c-187.733 0-341.333 153.6-341.333 341.333s153.6 341.333 341.333 341.333 341.333-153.6 341.333-341.333-153.6-341.333-341.333-341.333zM512 661.333c-119.467 0-213.333-93.867-213.333-213.333s93.867-213.333 213.333-213.333 213.333 93.867 213.333 213.333-93.867 213.333-213.333 213.333zM512 320c-72.533 0-128 55.467-128 128s55.467 128 128 128 128-55.467 128-128-55.467-128-128-128z" glyph-name="mbri-target" unicode=""/><glyph d="M840.533 631.467l85.333 85.333-59.733 59.733-85.333-85.333c-64 55.467-140.8 85.333-226.133 93.867v89.6h128v85.333h-341.333v-85.333h128v-89.6c-213.333-21.333-384-200.533-384-422.4 0-234.667 192-426.667 426.667-426.667s426.667 192 426.667 426.667c0 102.4-34.133 196.267-98.133 268.8zM512 21.333c-187.733 0-341.333 153.6-341.333 341.333s153.6 341.333 341.333 341.333 341.333-153.6 341.333-341.333-153.6-341.333-341.333-341.333zM469.333 618.667h85.333v-256h-85.333v256z" glyph-name="mbri-timer" unicode=""/><glyph d="M1024 149.333v640h-494.933l-170.667 170.667h-358.4v-810.667h469.333v-128h-469.333v-85.333h1024v85.333h-469.333v128h469.333zM85.333 874.667h238.933l170.667-170.667h443.733v-469.333h-853.333v640z" glyph-name="mbri-to-ftp" unicode=""/><glyph d="M887.467 789.333h-247.467v-85.333h179.2l115.2-426.667h-844.8l115.2 426.667h179.2v85.333h-247.467l-136.533-512v-341.333h1024v341.333l-136.533 512zM938.667 21.333h-853.333v170.667h853.333v-170.667zM328.533 665.6l140.8-140.8v435.2h85.333v-435.2l140.8 140.8 59.733-59.733-243.2-243.2-243.2 243.2 59.733 59.733z" glyph-name="mbri-to-local-drive" unicode=""/><glyph d="M900.267 418.133l-260.267 64v221.867c0 72.533-55.467 128-128 128s-128-55.467-128-128v-324.267c-51.2 42.667-128 42.667-179.2-8.533-25.6-25.6-38.4-59.733-38.4-93.867s12.8-68.267 38.4-93.867l247.467-247.467h529.067v375.467c0 51.2-34.133 93.867-81.067 106.667zM896 21.333h-409.6l-221.867 221.867c-8.533 8.533-12.8 21.333-12.8 34.133s4.267 25.6 12.8 34.133c21.333 17.067 51.2 17.067 68.267 0l136.533-136.533v529.067c0 25.6 17.067 42.667 42.667 42.667s42.667-17.067 42.667-42.667v-290.133l324.267-81.067c8.533-4.267 17.067-12.8 17.067-21.333v-290.133zM861.867 661.333h-136.533v85.333h136.533l-55.467 55.467 59.733 59.733 157.867-157.867-157.867-157.867-59.733 59.733 55.467 55.467zM217.6 605.867l-59.733-59.733-157.867 157.867 157.867 157.867 59.733-59.733-55.467-55.467h136.533v-85.333h-136.533l55.467-55.467z" glyph-name="mbri-touch-swipe" unicode=""/><glyph d="M298.667 704h-85.333c0 140.8 115.2 256 256 256s256-115.2 256-256h-85.333c0 93.867-76.8 170.667-170.667 170.667s-170.667-76.8-170.667-170.667zM938.667 311.467v-375.467h-529.067l-247.467 247.467c-25.6 25.6-38.4 59.733-38.4 93.867s12.8 68.267 38.4 93.867c51.2 51.2 128 51.2 179.2 8.533v324.267c0 72.533 55.467 128 128 128s128-55.467 128-128v-221.867l260.267-64c46.933-12.8 81.067-55.467 81.067-106.667zM853.333 311.467c0 8.533-8.533 17.067-17.067 21.333l-324.267 81.067v290.133c0 25.6-17.067 42.667-42.667 42.667s-42.667-17.067-42.667-42.667v-529.067l-136.533 136.533c-17.067 17.067-46.933 17.067-68.267 0-8.533-8.533-12.8-21.333-12.8-34.133s4.267-25.6 12.8-34.133l221.867-221.867h409.6v290.133z" glyph-name="mbri-touch" unicode=""/><glyph d="M682.667 789.333v170.667h-341.333v-170.667h-256v-85.333h85.333l42.667-768h597.333l42.667 768h85.333v85.333h-256zM426.667 874.667h170.667v-85.333h-170.667v85.333zM729.6 21.333h-435.2l-34.133 682.667h507.733l-38.4-682.667z" glyph-name="mbri-trash" unicode=""/><glyph d="M853.333 960v-512c0-187.733-153.6-341.333-341.333-341.333s-341.333 153.6-341.333 341.333v512h85.333v-512c0-140.8 115.2-256 256-256s256 115.2 256 256v512h85.333zM170.667-64h682.667v85.333h-682.667v-85.333z" glyph-name="mbri-underline" unicode=""/><glyph d="M1024 290.133l-85.333-25.6c-21.333 68.267-59.733 136.533-115.2 187.733-170.667 166.4-452.267 166.4-627.2 0-38.4-38.4-68.267-85.333-93.867-132.267h324.267v-85.333h-426.667v426.667h85.333v-209.067c17.067 21.333 34.133 42.667 51.2 59.733 204.8 196.267 541.867 196.267 746.667 0 68.267-59.733 115.2-136.533 140.8-221.867z" glyph-name="mbri-undo" unicode=""/><glyph d="M256 64l-128 128 234.667 234.667-64 64-298.667-298.667 256-256 298.667 298.667-64 64-234.667-234.667zM1024 704l-256 256-298.667-298.667 64-64 234.667 234.667 128-128-234.667-234.667 64-64 298.667 298.667zM426.667 832h-85.333v-128h85.333v128zM128 533.333h128v85.333h-128v-85.333zM597.333 64h85.333v128h-85.333v-128zM896 362.667h-128v-85.333h128v85.333z" glyph-name="mbri-unlink" unicode=""/><glyph d="M768 960c-140.8 0-256-115.2-256-256v-170.667h-512v-597.333h682.667v597.333h-85.333v170.667c0 93.867 76.8 170.667 170.667 170.667s170.667-76.8 170.667-170.667v-85.333h85.333v85.333c0 140.8-115.2 256-256 256zM597.333 21.333h-512v426.667h512v-426.667z" glyph-name="mbri-unlock" unicode=""/><glyph d="M738.133 281.6l59.733-59.733-285.867-285.867-285.867 285.867 59.733 59.733 183.467-183.467v699.733l-183.467-183.467-59.733 59.733 285.867 285.867 285.867-285.867-59.733-59.733-183.467 183.467v-699.733l183.467 183.467z" glyph-name="mbri-up-down" unicode=""/><glyph d="M226.133 674.133l285.867 285.867 285.867-285.867-59.733-59.733-183.467 183.467v-861.867h-85.333v861.867l-183.467-183.467-59.733 59.733z" glyph-name="mbri-up" unicode=""/><glyph d="M725.333 238.933l59.733-59.733c-72.533-72.533-170.667-110.933-273.067-110.933-192 0-354.133 140.8-379.733 328.533l-59.733-59.733-59.733 59.733 157.867 153.6 157.867-157.867-59.733-59.733-46.933 46.933c29.867-132.267 149.333-230.4 290.133-230.4 81.067 0 153.6 29.867 213.333 89.6zM951.467 563.2l-59.733-59.733c-25.6 187.733-187.733 328.533-379.733 328.533-102.4 0-200.533-38.4-273.067-110.933l59.733-59.733c59.733 55.467 132.267 85.333 213.333 85.333 140.8 0 260.267-98.133 290.133-230.4l-46.933 46.933-59.733-59.733 157.867-157.867 157.867 157.867-59.733 59.733z" glyph-name="mbri-update" unicode=""/><glyph d="M554.667 21.333h-85.333v477.867l-98.133-98.133-59.733 59.733 200.533 200.533 200.533-200.533-59.733-59.733-98.133 98.133v-477.867zM844.8 661.333c-29.867 145.067-162.133 256-311.467 256-136.533 0-256-89.6-302.933-213.333h-17.067c-119.467 0-213.333-93.867-213.333-213.333s93.867-213.333 213.333-213.333h170.667v85.333h-170.667c-72.533 0-128 55.467-128 128s55.467 128 128 128h85.333l4.267 25.6c21.333 110.933 119.467 187.733 230.4 187.733 123.733 0 226.133-93.867 234.667-217.6v-38.4h64c59.733 0 106.667-46.933 106.667-106.667s-46.933-106.667-106.667-106.667h-192v-85.333h192c106.667 0 192 85.333 192 192 0 102.4-76.8 183.467-179.2 192z" glyph-name="mbri-upload-2" unicode=""/><glyph d="M285.867 614.4l-59.733 59.733 285.867 285.867 285.867-285.867-59.733-59.733-183.467 183.467v-691.2h-85.333v691.2l-183.467-183.467zM853.333 106.667v-85.333h-682.667v85.333h-85.333v-170.667h853.333v170.667h-85.333z" glyph-name="mbri-upload" unicode=""/><glyph d="M512 960c-281.6 0-512-230.4-512-512s230.4-512 512-512 512 230.4 512 512-230.4 512-512 512zM256 106.667c0 140.8 115.2 256 256 256s256-115.2 256-256c-72.533-55.467-157.867-85.333-256-85.333s-183.467 34.133-256 85.333zM384 576c0 72.533 55.467 128 128 128s128-55.467 128-128-55.467-128-128-128-128 55.467-128 128zM844.8 179.2c-21.333 106.667-93.867 192-192 238.933 42.667 38.4 72.533 93.867 72.533 157.867 0 119.467-93.867 213.333-213.333 213.333s-213.333-93.867-213.333-213.333c0-64 29.867-119.467 72.533-157.867-98.133-46.933-166.4-132.267-192-238.933-59.733 72.533-93.867 166.4-93.867 268.8 0 234.667 192 426.667 426.667 426.667s426.667-192 426.667-426.667c0-102.4-34.133-196.267-93.867-268.8z" glyph-name="mbri-user-2" unicode=""/><glyph d="M669.867 503.467c59.733 46.933 98.133 119.467 98.133 200.533 0 140.8-115.2 256-256 256s-256-115.2-256-256c0-81.067 38.4-153.6 98.133-200.533-157.867-64-268.8-217.6-268.8-396.8v-170.667h853.333v170.667c0 179.2-110.933 332.8-268.8 396.8zM341.333 704c0 93.867 76.8 170.667 170.667 170.667s170.667-76.8 170.667-170.667-76.8-170.667-170.667-170.667-170.667 76.8-170.667 170.667zM853.333 21.333h-682.667v85.333c0 187.733 153.6 341.333 341.333 341.333s341.333-153.6 341.333-341.333v-85.333z" glyph-name="mbri-user" unicode=""/><glyph d="M840.533 460.8c34.133 34.133 55.467 85.333 55.467 136.533 0 106.667-85.333 192-192 192s-192-85.333-192-192c-17.067 12.8-38.4 25.6-59.733 34.133 34.133 34.133 59.733 85.333 59.733 136.533 0 106.667-85.333 192-192 192s-192-85.333-192-192c0-55.467 21.333-102.4 55.467-136.533-106.667-51.2-183.467-162.133-183.467-290.133v-234.667h384v-170.667h640v234.667c0 128-76.8 238.933-183.467 290.133zM704 704c59.733 0 106.667-46.933 106.667-106.667s-46.933-106.667-106.667-106.667-106.667 46.933-106.667 106.667 46.933 106.667 106.667 106.667zM213.333 768c0 59.733 46.933 106.667 106.667 106.667s106.667-46.933 106.667-106.667-46.933-106.667-106.667-106.667-106.667 46.933-106.667 106.667zM85.333 341.333c0 128 106.667 234.667 234.667 234.667 89.6 0 174.933-55.467 213.333-136.533-85.333-51.2-140.8-145.067-149.333-247.467h-298.667v149.333zM938.667 21.333h-469.333v149.333c0 128 106.667 234.667 234.667 234.667s234.667-106.667 234.667-234.667v-149.333z" glyph-name="mbri-users" unicode=""/><glyph d="M0 832v-768h1024v768h-1024zM938.667 149.333h-853.333v597.333h853.333v-597.333zM384 661.333v-426.667l341.333 213.333-341.333 213.333zM469.333 499.2l89.6-51.2-89.6-51.2v102.4z" glyph-name="mbri-video-play" unicode=""/><glyph d="M981.333 750.933l-256-213.333v209.067h-682.667v-597.333h682.667v209.067l256-213.333v605.867zM640 234.667h-512v426.667h512v-426.667zM896 324.267l-145.067 123.733 145.067 123.733v-247.467z" glyph-name="mbri-video" unicode=""/><glyph d="M469.333 618.667h85.333v-213.333h-170.667v85.333h85.333v128zM853.333 448c0-106.667-51.2-204.8-128-268.8l-51.2-243.2h-324.267l-51.2 243.2c-76.8 64-128 157.867-128 268.8 0 106.667 51.2 204.8 128 268.8l51.2 243.2h324.267l51.2-243.2c76.8-64 128-162.133 128-268.8zM396.8 768c38.4 12.8 76.8 21.333 115.2 21.333s76.8-8.533 115.2-21.333l-21.333 106.667h-187.733l-21.333-106.667zM627.2 128c-38.4-12.8-76.8-21.333-115.2-21.333s-76.8 8.533-115.2 21.333l21.333-106.667h187.733l21.333 106.667zM768 448c0 140.8-115.2 256-256 256s-256-115.2-256-256 115.2-256 256-256 256 115.2 256 256z" glyph-name="mbri-watch" unicode=""/><glyph d="M640 576v384h-256v-384l-256-85.333v-554.667h768v554.667l-256 85.333zM810.667 21.333h-341.333v85.333h-85.333v-85.333h-170.667v256h597.333v-256zM810.667 362.667h-597.333v68.267l256 85.333v358.4h85.333v-358.4l256-85.333v-68.267z" glyph-name="mbri-website-theme-2" unicode=""/><glyph d="M896-64h-768v640h-128v384h379.733l8.533-29.867c17.067-59.733 64-98.133 123.733-98.133s106.667 38.4 123.733 98.133l8.533 29.867h379.733v-384h-128v-640zM213.333 21.333h597.333v640h128v213.333h-230.4c-34.133-76.8-110.933-128-196.267-128s-162.133 51.2-196.267 128h-230.4v-213.333h128v-640z" glyph-name="mbri-website-theme" unicode=""/><glyph d="M631.467 226.133l-119.467-119.467-119.467 119.467c64 68.267 174.933 68.267 238.933 0zM149.333 469.333l59.733-59.733c166.4 166.4 439.467 166.4 605.867 0l59.733 59.733c-200.533 200.533-524.8 200.533-725.333 0zM268.8 349.867l59.733-59.733c51.2 46.933 115.2 72.533 183.467 72.533s132.267-25.6 179.2-76.8l59.733 59.733c-64 68.267-149.333 102.4-238.933 102.4s-174.933-34.133-243.2-98.133zM512 789.333c-183.467 0-354.133-72.533-482.133-200.533l59.733-59.733c110.933 110.933 264.533 174.933 422.4 174.933s311.467-64 422.4-174.933l59.733 59.733c-128 128-298.667 200.533-482.133 200.533z" glyph-name="mbri-wifi" unicode=""/><glyph d="M0 785.067v-669.867l1024-140.8v947.2l-1024-136.533zM938.667 490.667h-422.4v277.333l422.4 59.733v-337.067zM430.933 755.2v-264.533h-345.6v217.6l345.6 46.933zM85.333 405.333h345.6v-264.533l-345.6 46.933v217.6zM516.267 128v277.333h422.4v-337.067l-422.4 59.733z" glyph-name="mbri-windows" unicode=""/><glyph d="M610.133 409.6c46.933 59.733 72.533 132.267 72.533 209.067 0 187.733-153.6 341.333-341.333 341.333s-341.333-153.6-341.333-341.333 153.6-341.333 341.333-341.333c76.8 0 149.333 25.6 209.067 72.533l401.067-401.067 59.733 59.733-401.067 401.067zM341.333 362.667c-140.8 0-256 115.2-256 256s115.2 256 256 256 256-115.2 256-256-115.2-256-256-256zM384 661.333h128v-85.333h-128v-128h-85.333v128h-128v85.333h128v128h85.333v-128z" glyph-name="mbri-zoom-in" unicode=""/><glyph d="M1011.2 8.533l-401.067 401.067c46.933 59.733 72.533 132.267 72.533 209.067 0 187.733-153.6 341.333-341.333 341.333s-341.333-153.6-341.333-341.333 153.6-341.333 341.333-341.333c76.8 0 149.333 25.6 209.067 72.533l401.067-401.067 59.733 59.733zM341.333 362.667c-140.8 0-256 115.2-256 256s115.2 256 256 256 256-115.2 256-256-115.2-256-256-256zM170.667 661.333h341.333v-85.333h-341.333v85.333z" glyph-name="mbri-zoom-out" unicode=""/></font>
</defs>
</svg>
